<?xml version="1.0" standalone="no"?>
<!DOCTYPE svg PUBLIC "-//W3C//DTD SVG 1.1//EN" "http://www.w3.org/Graphics/SVG/1.1/DTD/svg11.dtd" >
<svg xmlns="http://www.w3.org/2000/svg">
<metadata>Generated by IcoMoon</metadata>
<defs>
<font id="orangeconfortplus" horiz-adv-x="1024">
<font-face units-per-em="1024" ascent="960" descent="-64" />
<missing-glyph horiz-adv-x="1024" />
<glyph unicode="&#x20;" horiz-adv-x="512" d="" />
<glyph unicode="&#x3f;" glyph-name="help" d="M502.939 959.932c-280.884-4.53-507.403-235.58-502.872-520.994 4.53-280.884 235.58-507.403 520.994-502.872 280.884 4.53 507.403 235.58 502.872 520.994-9.061 280.884-240.11 507.403-520.994 502.872zM502.939 117.281v0c-49.834 0-86.077 36.243-81.547 81.547 0 45.304 36.243 81.547 81.547 81.547h4.53c49.834 0 81.547-36.243 81.547-86.077-9.061-40.773-40.773-77.016-86.077-77.016zM702.276 515.955c-9.061-18.122-36.243-36.243-67.956-58.895l-36.243-22.652c-18.122-13.591-31.713-27.182-36.243-40.773-4.53-9.061-4.53-13.591-4.53-36.243v-4.53h-131.381v9.061c0 45.304 4.53 72.486 22.652 95.138 31.713 36.243 95.138 77.016 99.668 77.016 9.061 9.061 18.122 13.591 22.652 22.652 13.591 18.122 18.122 36.243 18.122 49.834 0 22.652-4.53 40.773-18.122 54.365-13.591 18.122-31.713 22.652-63.425 22.652s-54.365-9.061-63.425-31.713c-13.591-22.652-18.122-45.304-18.122-63.425v-4.53h-135.911v4.53c4.53 81.547 31.713 144.972 86.077 176.685 36.243 22.652 77.016 31.713 126.851 31.713 63.425 0 122.32-18.122 163.094-45.304 45.304-31.713 67.956-81.547 67.956-140.442 0-31.713-9.061-63.425-31.713-95.138z" />
<glyph unicode="&#x54;" glyph-name="typographie" d="M970.985 960v-277.144h-27.186c-16.11 63.937-33.982 109.876-53.616 137.817s-46.568 50.218-80.802 66.832c-19.131 9.062-52.609 13.593-100.436 13.593h-76.271v-789.898c0-52.358 2.895-85.081 8.684-98.171s17.117-24.543 33.982-34.36c16.865-9.817 39.897-14.726 69.097-14.726h33.982v-27.941h-536.164v27.941h33.982c29.703 0 53.616 5.286 71.74 15.858 13.090 7.048 23.41 19.131 30.962 36.248 5.538 12.083 8.307 43.799 8.307 95.15v789.898h-74.006c-68.972 0-119.063-14.6-150.277-43.799-43.8-40.779-71.488-98.926-83.068-174.442h-28.696v277.144h919.785z" />
<glyph unicode="&#x58;" glyph-name="croix" d="M512 348.445l412.444-412.444 99.556 99.556-412.444 412.444 412.444 412.444-99.556 99.556-412.444-405.333-412.444 405.333-99.556-99.556 412.444-412.444-412.444-412.444 99.556-99.556z" />
<glyph unicode="&#x21bb;" glyph-name="reload2" d="M121.654 810.425c-40.333 39.099-80.286 77.829-121.132 117.425-0.231-2.891-0.493-4.647-0.494-6.403-0.018-104.902-0.057-209.804 0.009-314.706 0.021-33.801 29.513-62.567 64.273-62.594 108.755-0.084 217.508-0.032 326.263-0.033h3.337c-44.032 42.608-88.246 85.393-132.39 128.107 88.624 94.297 268.889 137.617 416.946 41.907 159.237-102.939 194.96-314.723 78.86-460.696-119.477-150.218-350.421-170.122-494.375-32.633-46.578-45.117-93.153-90.231-139.745-135.362 170.759-171.425 480.85-212 706.532-33.55 229.907 181.789 257.448 505.48 73.532 721.934-194.080 228.419-556.291 253.711-781.616 36.604z" />
<glyph unicode="&#x2212;" glyph-name="remove_modifier" d="M482.399 946.665c-0.118-0.118-5.402-0.706-11.511-1.058-6.109-0.47-12.218-1.058-13.508-1.29s-4.933-0.821-8.224-1.176c-7.754-0.821-12.569-1.646-30.544-4.582-1.29-0.118-3.642-0.706-5.288-1.058s-7.987-1.878-14.096-3.173c-21.732-4.814-58.618-16.33-73.42-22.908-1.878-0.939-6.93-3.054-11.16-4.7-20.911-8.575-54.742-26.902-77.65-42.174-18.914-12.569-22.202-14.921-38.294-28.078-72.362-58.385-126.047-134.153-157.412-221.669-8.812-24.786-18.090-60.496-21.499-83.171-2.936-18.678-3.406-22.438-4.112-30.189-0.47-4.463-1.058-9.751-1.409-11.748-1.058-6.697-1.29-65.902-0.351-77.532 1.176-13.508 3.524-35.358 4.23-38.764 0.351-1.29 1.646-8.457 2.936-15.86 11.16-63.318 36.886-127.574 73.771-183.844 4.23-6.46 8.106-12.218 8.694-12.92 0.47-0.588 4.582-6.227 9.163-12.336 27.959-37.355 60.851-70.247 97.97-98.325 29.601-22.202 47.694-33.48 80.586-49.924 44.17-21.969 101.494-39.94 147.31-46.049 2.585-0.351 8.457-1.176 12.92-1.764 22.438-3.054 77.765-4.23 100.436-2.115 54.861 5.051 101.142 16.093 148.6 35.358 24.317 9.984 55.33 25.726 74.596 38.062 19.147 12.218 40.646 27.49 50.63 35.946 2.348 1.997 6.815 5.758 9.984 8.338s9.396 8.106 13.978 12.336c78.704 73.302 130.392 164.811 151.303 267.836 3.761 18.090 6.46 35.358 7.399 46.988 0.351 4.814 0.939 10.102 1.29 11.748 1.058 5.288 1.29 66.021 0.237 77.532-1.29 15.974-3.406 33.713-4.582 40.528-0.588 3.287-1.646 9.282-2.348 13.508-9.633 54.506-32.655 116.178-61.202 163.521-6.93 11.393-19.266 30.658-21.381 33.243-0.47 0.706-4.814 6.46-9.751 12.92-63.906 85.519-156.354 149.425-258.906 179.144-29.601 8.575-60.733 14.684-86.928 17.15-4.23 0.351-9.163 0.939-11.16 1.29-3.875 0.588-70.598 1.527-71.305 0.939zM550.18 827.783c74.359-7.636 142.022-35.358 200.994-82.228 16.444-13.157 45.228-41.937 58.499-58.499 29.368-36.886 50.982-77.062 65.784-122.172 7.166-22.202 13.508-51.806 16.562-78.704 1.527-13.745 1.527-58.030 0-74.008-6.578-67.193-30.544-131.801-67.899-183.844-17.738-24.668-44.991-54.624-64.726-71.186-61.672-51.57-136.619-82.934-214.502-89.631-12.218-1.058-62.611-0.821-70.484 0.351-2.234 0.351-8.575 1.176-14.096 1.997-45.698 5.872-95.74 22.671-135.443 45.342-20.323 11.511-45.93 29.486-62.848 44.052-5.402 4.582-34.77 34.182-39.47 39.589-51.451 60.263-82.465 133.328-90.807 213.914-1.176 11.393-1.176 53.803 0 68.132 11.866 147.073 110.775 275.586 251.037 326.335 19.972 7.285 54.624 16.093 71.656 18.326 2.936 0.351 7.518 1.058 10.221 1.409 20.911 2.936 61.79 3.287 85.519 0.821zM238.292 535.046c-7.987-2.466-13.157-6.697-17.15-14.214-2.115-3.875-2.234-7.987-2.234-72.832 0-68.132 0-68.72 2.585-73.42 2.818-5.402 6.342-8.812 12.099-11.866 3.994-2.115 13.157-2.234 274.884-2.585 202.285-0.237 272.418 0 277.114 1.058 5.051 1.058 7.399 2.466 11.866 6.93 8.457 8.338 8.457 7.987 7.987 83.404-0.351 64.726-0.351 65.196-2.936 70.129-3.406 6.227-9.87 11.511-16.33 13.157-5.872 1.527-542.953 1.646-547.886 0.237z" />
<glyph unicode="&#x2302;" glyph-name="icon_trash" d="M399.217 958.148c-21.081-5.782-38.066-22.888-43.607-44.089-1.205-4.337-1.807-12.889-1.807-25.417v-19.033h-79.504c-86.973 0-89.503-0.12-106.126-7.107-24.935-10.48-44.571-32.765-52.401-59.749-1.686-6.023-2.168-13.853-2.53-45.414l-0.602-38.307h783.36l-0.12 35.295c-0.12 29.874-0.482 36.62-2.409 44.812-6.384 27.345-23.49 49.028-48.305 61.074-18.31 9.035-13.853 8.673-106.729 9.035l-83.48 0.482v18.912c0 12.528-0.602 21.081-1.807 25.417-5.662 21.442-22.647 38.427-44.089 44.089-9.276 2.53-201.050 2.409-209.844 0v0zM594.726 884.666v-15.058h-180.692v30.115h180.692v-15.058zM173.112 312.475v-376.442h662.537v752.883h-662.537v-376.442zM337.662 594.836c6.625-3.373 13.010-10.962 14.937-17.708 0.843-3.012 1.205-89.141 1.205-264.774 0-229.84-0.241-261.040-1.807-265.617-2.53-7.228-6.746-12.287-13.492-16.262-4.939-3.012-6.987-3.493-14.817-3.493-7.71 0-9.878 0.482-14.696 3.373-3.132 1.807-7.107 5.059-8.673 7.228-7.228 9.396-6.746-9.396-6.746 274.772 0 292.48-0.843 267.424 9.035 277.182 9.276 9.276 23.249 11.444 35.054 5.3zM514.619 596.523c7.589-2.53 15.299-10.239 17.828-17.828 1.927-5.421 2.048-26.983 2.048-266.34 0-284.168 0.482-265.376-6.746-274.772-1.566-2.168-5.541-5.421-8.673-7.228-4.698-2.771-6.987-3.373-14.696-3.373-10.36 0-14.455 1.686-21.683 9.155-9.155 9.516-8.432-14.094-8.191 278.868l0.361 262.726 3.614 5.782c7.95 12.769 21.924 17.828 36.138 13.010zM700.009 594.475c6.264-3.614 11.082-9.516 13.492-16.021 1.325-3.734 1.566-50.714 1.686-265.497 0-291.516 0.723-267.786-8.553-277.061-7.107-7.107-11.203-8.794-21.563-8.794-7.83-0.12-9.878 0.361-14.817 3.252-6.746 3.975-11.926 10.721-13.974 17.949-1.084 3.855-1.325 69.145-1.084 266.581l0.361 261.522 3.012 5.782c3.373 6.625 9.516 12.167 16.383 14.696 6.987 2.65 18.431 1.566 25.056-2.409z" />
<glyph unicode="&#x2630;" glyph-name="ico-modifier-mise-page" d="M38.8 959.409h945.443c5.655 0 10.24-4.585 10.24-10.24v-94.223c0-5.655-4.585-10.24-10.24-10.24h-945.443c-5.655 0-10.24 4.585-10.24 10.24v94.223c0 5.655 4.585 10.24 10.24 10.24zM46.635 732.084h449.262c9.030 0 16.3-7.27 16.3-16.3v-82.104c0-9.030-7.27-16.3-16.3-16.3h-449.262c-9.030 0-16.3 7.27-16.3 16.3v82.104c0 9.030 7.27 16.3 16.3 16.3zM40.575 504.76h945.443c5.655 0 10.24-4.585 10.24-10.24v-94.223c0-5.655-4.585-10.24-10.24-10.24h-945.443c-5.655 0-10.24 4.585-10.24 10.24v94.223c0 5.655 4.585 10.24 10.24 10.24zM46.635 277.436h449.262c9.030 0 16.3-7.27 16.3-16.3v-82.104c0-9.030-7.27-16.3-16.3-16.3h-449.262c-9.030 0-16.3 7.27-16.3 16.3v82.104c0 9.030 7.27 16.3 16.3 16.3zM40.575 50.112h945.443c5.655 0 10.24-4.585 10.24-10.24v-94.223c0-5.655-4.585-10.24-10.24-10.24h-945.443c-5.655 0-10.24 4.585-10.24 10.24v94.223c0 5.655 4.585 10.24 10.24 10.24z" />
<glyph unicode="&#x268c;" glyph-name="masque" d="M83 954v-1024h875v886h-2l-137 136-1-1v3h-735zM141 895h618v-138h141v-769h-759v907zM818 870l54-54h-54v54zM250.053 762.472h238.050v-58.514c-189.367 0-238.050 0-238.050 0zM250.053 411.387h559.317v58.514h-559.317zM250.053 118.815h404.859v58.514h-404.859zM4.869 627.516v-376.686h1024v376.686h-1024zM92.641 539.745h848.457v-201.143h-848.457v201.143z" />
<glyph unicode="&#x270d;" glyph-name="icon_edit" d="M761.753 959.405c-17.292-1.536-36.634-9.216-51.109-20.096-4.611-3.456-141.414-139.39-304.091-302.205-258.106-258.173-295.894-296.445-297.303-301.181-12.297-40.32-43.936-144.382-55.72-183.294-8.326-27.392-17.292-56.831-19.854-65.279-8.838-28.8-17.549-57.599-18.573-61.439-0.64-2.048-4.355-14.464-8.326-27.52-6.148-20.096-7.173-24.704-6.661-30.848 1.921-21.888 22.8-36.096 44.448-30.208 3.843 1.024 13.962 3.968 22.416 6.656 8.454 2.56 24.594 7.424 35.866 10.88s44.448 13.568 73.653 22.4c29.205 8.96 55.72 17.024 58.923 17.92 4.739 1.28 119.254 35.968 139.621 42.24 3.202 1.024 11.272 3.456 17.933 5.504l12.169 3.84 296.79 296.701c163.318 163.326 299.224 300.029 302.17 303.869 6.789 8.832 14.218 24.832 17.292 36.48 2.562 10.368 3.458 31.104 1.665 42.24-2.306 14.976-9.479 31.744-19.086 44.928-7.045 9.344-159.859 161.918-169.338 168.958-21.52 15.744-45.089 22.144-72.885 19.456v0zM786.987 842.158l10.504-10.624-588.457-588.538 48.803-49.023 48.675-49.023 589.481 588.41 12.169-12.16 12.041-12.16-588.713-588.538 23.697-23.552c13.065-13.056 23.697-23.936 23.697-24.32s-4.483-1.92-9.863-3.456c-5.508-1.536-19.214-5.632-30.486-9.088-11.272-3.584-35.738-11.008-54.439-16.64-18.701-5.76-48.291-14.72-65.968-20.096-17.549-5.376-34.841-10.624-38.428-11.648-3.458-0.896-10.76-3.072-16.14-4.864l-9.735-3.072-85.95 86.143 10.504 34.56c5.892 19.072 11.785 38.656 13.322 43.52 16.652 54.655 35.994 118.271 39.709 130.943 2.562 8.576 4.868 15.616 5.38 15.616 0.384 0 11.272-10.624 24.209-23.552l23.441-23.424 294.1 294.141c249.14 249.213 294.356 293.885 296.022 292.605 1.153-0.896 6.661-6.272 12.425-12.16v0z" />
<glyph unicode="&#x2714;" glyph-name="checkbox_tick" d="M384.019 320.019l-192.064 192-127.936-128 320-320.064 640 640-128 128.064-512-512z" />
<glyph unicode="&#x271a;" glyph-name="modifier_add" d="M482.399 946.664c-0.118-0.118-5.402-0.706-11.511-1.058-6.109-0.47-12.218-1.058-13.508-1.29s-4.933-0.821-8.224-1.176c-7.754-0.821-12.569-1.646-30.544-4.582-1.29-0.118-3.642-0.706-5.288-1.058s-7.987-1.878-14.096-3.173c-21.732-4.814-58.618-16.33-73.42-22.908-1.878-0.939-6.93-3.054-11.16-4.7-11.278-4.7-40.998-19.617-53.918-27.253-37.592-22.083-70.014-47.106-101.024-77.883-52.864-52.627-93.037-115.826-118.411-186.78-8.812-24.786-18.090-60.496-21.499-83.171-2.936-18.678-3.406-22.438-4.112-30.189-0.47-4.463-1.058-9.751-1.409-11.748-1.058-6.697-1.29-65.902-0.351-77.532 1.176-13.508 3.524-35.358 4.23-38.764 0.351-1.29 1.646-8.457 2.936-15.86 11.16-63.318 36.886-127.574 73.771-183.844 4.23-6.46 8.106-12.218 8.575-12.92 0.588-0.588 2.585-3.287 4.463-5.872 21.026-28.429 38.531-48.164 65.902-74.122 19.617-18.559 50.982-42.288 76.826-58.148 56.151-34.538 126.75-60.382 187.952-68.487 2.585-0.351 8.457-1.176 12.92-1.764 22.438-3.054 77.765-4.23 100.436-2.115 32.774 3.054 61.909 8.106 89.864 15.623 96.21 25.844 182.431 80.117 247.513 155.534 57.209 66.254 94.564 142.14 111.714 226.72 3.761 18.090 6.46 35.358 7.399 46.988 0.351 4.814 0.939 10.102 1.29 11.748 1.058 5.288 1.29 66.021 0.237 77.532-1.29 15.974-3.406 33.713-4.582 40.528-0.588 3.287-1.646 9.282-2.348 13.508-9.633 54.506-32.655 116.178-61.202 163.521-6.93 11.393-19.266 30.658-21.381 33.243-0.47 0.706-4.814 6.46-9.751 12.92-63.906 85.519-156.354 149.425-258.906 179.144-29.601 8.575-60.733 14.684-86.928 17.15-4.23 0.351-9.163 0.939-11.16 1.29-3.875 0.588-70.598 1.527-71.305 0.939zM553.704 845.052c7.166-0.706 17.15-1.997 22.32-2.936s11.278-1.878 13.508-2.348c8.694-1.409 32.892-7.754 44.64-11.63 70.014-22.553 131.568-63.436 179.377-118.762 21.732-25.138 37.237-47.813 52.158-76.356 25.256-48.397 39.822-98.676 44.403-153.888 1.058-12.45 0.706-58.266-0.47-68.132-5.051-43.113-11.278-69.896-24.435-105.136-8.926-24.317-28.192-61.084-43.231-82.934-23.61-34.182-56.739-68.957-88.574-92.918-62.142-46.87-131.331-73.302-209.688-80.117-11.63-1.058-58.969-0.706-68.132 0.351-2.936 0.351-8.224 0.939-11.748 1.409-11.278 1.176-33.010 5.17-47.927 8.812-60.614 14.921-117.823 44.64-164.693 85.401-77.65 67.43-124.871 157.763-136.382 260.433-1.997 16.918-1.878 66.96 0 83.404 7.518 65.078 27.841 122.523 62.26 175.62 33.010 51.1 81.526 97.386 133.683 127.574 10.69 6.227 36.534 19.266 44.403 22.438 1.997 0.821 6.227 2.585 9.396 3.875 10.102 4.345 36.298 12.687 51.337 16.33 22.671 5.639 38.764 8.106 72.595 11.042 8.926 0.821 52.978-0.237 65.196-1.527zM442.222 739.916c-8.694-3.054-14.802-9.514-17.15-18.090-0.706-2.703-1.176-37.825-1.176-94.915v-90.807l-93.037-0.237c-88.337-0.351-93.388-0.47-97.267-2.585-5.758-3.054-9.282-6.46-12.099-11.866-2.585-4.7-2.585-5.288-2.585-73.42s0-68.72 2.585-73.42c2.818-5.402 6.342-8.812 12.099-11.866 3.875-2.115 8.926-2.234 97.149-2.585l93.155-0.237 0.237-93.155c0.351-92.686 0.351-93.037 2.936-97.737 2.818-5.402 6.342-8.812 12.099-11.866 3.875-2.115 8.338-2.234 69.308-2.585 44.17-0.237 67.074 0 71.186 0.939 7.048 1.527 13.626 6.578 17.269 13.275l2.585 4.933 0.351 93.155 0.351 93.037h90.452c65.433 0 91.979 0.351 95.973 1.409 3.875 0.939 7.048 2.936 10.923 6.815 8.338 8.338 8.338 8.106 7.869 83.404-0.351 64.726-0.351 65.196-2.936 70.129-3.406 6.227-9.87 11.511-16.33 13.157-3.406 0.821-34.182 1.29-95.503 1.29h-90.57v90.57c0 61.321-0.47 92.098-1.29 95.503-1.646 6.46-6.93 12.92-13.157 16.33-4.933 2.585-5.17 2.585-71.893 2.818-55.445 0.237-67.781 0-71.542-1.409z" />
<glyph unicode="&#x2757;" glyph-name="info" d="M499.723 958.917c-0.241-0.241-7.703-0.602-16.609-1.084-96.406-4.453-195.22-39.959-274.415-98.693-64.511-47.782-117.468-110.368-153.095-180.656-21.544-42.366-39.838-97.37-47.3-142.022-1.084-6.62-2.166-12.277-2.407-12.638-0.12-0.361-0.722-5.175-1.204-10.832s-1.084-10.591-1.323-10.952c-2.889-4.814-2.889-105.433 0-110.609 0.241-0.361 0.843-4.093 1.204-8.425 3.731-35.866 16.489-85.334 32.256-125.172 7.582-19.137 25.034-54.522 35.024-71.252 23.711-39.116 46.579-68.363 77.871-99.656 21.544-21.544 23.831-23.711 40.921-37.431 91.111-73.418 204.126-113.497 320.151-113.497 111.571 0.12 215.56 34.061 304.504 99.656 38.154 28.043 76.788 66.197 104.952 103.627 33.82 45.014 59.216 93.277 76.909 146.234 9.147 27.562 17.693 62.947 20.943 86.657 2.527 19.498 3.129 24.793 3.972 36.107 1.084 16.85 1.084 63.67-0.12 79.316-6.5 84.972-36.227 171.389-83.047 241.436-12.638 18.896-15.286 22.507-29.607 40.32-23.831 29.728-60.059 64.511-92.193 88.704-62.706 46.939-141.661 80.639-219.652 93.638-16.489 2.768-16.368 2.768-28.886 4.093-19.739 2.166-67.52 4.213-68.845 3.129zM528.85 836.754c48.263-8.786 81-56.688 71.733-104.952-8.305-43.329-44.652-73.298-88.823-73.298-43.449-0.12-80.038 30.33-88.343 73.057-5.536 29.368 3.37 58.373 24.793 79.918 21.784 22.025 50.068 30.811 80.639 25.275zM602.268 396.848c0.722-188.961 0.843-201.479 2.889-209.422 2.287-9.027 8.184-22.627 11.434-26.359 6.62-7.703 21.303-12.397 43.811-13.841 1.805-0.12 2.046-1.685 2.046-15.527v-15.286h-270.202l-0.722 31.293 5.175-0.12c8.545-0.12 22.507 2.768 29.488 6.259 12.878 6.259 16.609 12.277 19.739 31.173 1.685 9.989 2.407 314.374 0.843 332.908-1.323 14.804-4.934 29.368-8.786 34.302-5.536 7.221-22.507 13.239-39.357 13.841l-6.98 0.241v15.286c0 8.425 0.241 15.527 0.482 15.766 0.361 0.241 47.541 0.482 105.072 0.482h104.47l0.602-200.997z" />
<glyph unicode="&#x1f3a8;" d="M532 790c-172.54-2.436-342.757-86.719-445-227-0.324-0.445-0.677-1.554-1-2-60.313-83.287-95.659-187.346-84-292 10.659-97.927 62.283-190.592 140-251 47.878-37.909 104.824-65.45 165-79 35.642-6.66 77.82-3.463 108 25 26.62 24.702 38.977 60.667 41 94v3l-1 4c-1.811 6.475-1.667 13.839 0 20s3.629 9.448 8 12h1v2c19.713 13.162 48.495 14.457 79 18 0.374 0.035 0.626-0.035 1 0 1.612 0.146 3.384-0.138 5 0-2.883 7.713-6.264 15.239-9 23-22.642 63.094-36.756 129.606-33 197 1.446 65.517 42.431 131.041 105 154 21.010 70.354 41.863 140.684 63 211 6.089 20.712 12.762 41.331 19 62-52.565 17.191-107.058 26.716-162 26zM470 711c44.285 0 80-35.715 80-80s-35.715-80-80-80c-44.285 0-80 35.715-80 80s35.715 80 80 80zM875 652c-17.36-73.122-34.802-145.845-52-219 24.374-28.036 37.074-64.923 37-102 0.025-49.739-26.755-94.927-58-132-19.313-25.030-43.039-45.361-67-66 25.12 4.058 50.176 9.814 75 18 52.613 17.247 103.416 51.563 131 104h1c0.141 0.272-0.141 0.727 0 1 29.303 55.708 32.077 119.037 26 177-3.941 36.029-9.777 73.588-21 109l-2 1c-16.633 40.807-40.57 76.962-70 109zM255 567c44.285 0 80-35.715 80-80s-35.715-80-80-80c-44.285 0-80 35.715-80 80s35.715 80 80 80zM175 322c44.285 0 81-35.715 81-80s-36.715-80-81-80c-44.285 0-80 35.715-80 80s35.715 80 80 80z" />
<glyph unicode="&#x1f3a9;" d="M806 919c-10.23-1.339-18.892-8.647-22-19l-133-444c-0.626-2.084-0.946-3.926-1-6-86.101-13.66-151.501-113.988-35-381 42.774 70.41 257.364 181.399 190 310-7.336 14.004-18.601 26.274-32 37 1.224 2.050 3.422 3.552 4 6l107 452c3.313 14.027-5.643 28.153-20 32l-47 13c-3.589 0.962-7.59 0.446-11 0zM757 300c11.787 0.376 19.404-15.020 15-25-41.628-49.351-103.095-77.951-143-129-20.267 47.498-34.169 97.766-46 148 19.054-6.994 38.877-11.149 59-14 39.491-6.123 77.31 12.5 115 20z" />
<glyph unicode="&#x1f3aa;" d="M255.555 242.169c0-44.285-35.9-80.185-80.185-80.185s-80.185 35.9-80.185 80.185v0c0 44.285 35.9 80.185 80.185 80.185s80.185-35.9 80.185-80.185v0z" />
<glyph unicode="&#x1f3ab;" d="M335.296 486.828c0-44.285-35.9-80.185-80.185-80.185s-80.185 35.9-80.185 80.185v0c0 44.285 35.9 80.185 80.185 80.185s80.185-35.9 80.185-80.185v0z" />
<glyph unicode="&#x1f3ac;" d="M550.142 630.99c0-44.285-35.9-80.185-80.185-80.185s-80.185 35.9-80.185 80.185v0c0 44.285 35.9 80.185 80.185 80.185s80.185-35.9 80.185-80.185v0z" />
<glyph unicode="&#x1f3ad;" d="M756.767 300.121c-37.69-7.5-74.8-26.665-114.291-20.542-20.123 2.851-40.096 7.404-59.149 14.398 11.831-50.234 25.109-100.278 45.376-147.776 39.905 51.049 101.476 79.865 143.104 129.216 4.404 9.98-3.252 25.080-15.040 24.704z" />
<glyph unicode="&#x1f446;" glyph-name="comportement" d="M192.831 578.842c-75.761 5.737-135.439 69.075-135.439 146.281 0 81.047 65.687 146.733 146.733 146.733s146.733-65.687 146.733-146.733c0-12.695-1.626-25.028-4.653-36.774l19.245-26.925c8.041 20.284 12.062 41.698 12.062 63.699 0 23.401-4.563 46.17-13.598 67.494-8.764 20.646-21.278 39.213-37.18 55.16-15.902 15.902-34.424 28.416-55.115 37.135-21.368 9.080-44.092 13.643-67.494 13.643s-46.080-4.563-67.494-13.643c-20.691-8.719-39.213-21.233-55.115-37.135-15.902-15.947-28.416-34.515-37.18-55.16-9.035-21.323-13.598-44.092-13.598-67.494 0-23.356 4.563-46.080 13.598-67.494 8.764-20.646 21.278-39.168 37.18-55.16 15.902-15.857 34.424-28.371 55.115-37.135 21.414-8.99 44.092-13.598 67.494-13.598 2.665 0 5.331 0.045 7.951 0.181l-19.245 26.925zM127.935 669.588c-14.637 20.51-20.42 45.402-16.264 70.295 2.711 16.309 9.577 31.352 19.787 43.866 0.226 0.316 0.452 0.587 0.723 0.904 0.316 0.407 0.632 0.813 0.994 1.175 14.231 16.625 34.153 28.145 56.742 31.624 0.136 0.045 0.361 0.090 0.542 0.090 0.678 0.045 1.355 0.136 2.078 0.226 3.976 0.542 7.951 0.813 12.017 0.813 30.404 0 59.091-14.728 76.755-39.439l42.737-59.814c0.090 1.943 0.136 3.885 0.136 5.828 0 32.075-12.514 62.208-35.192 84.841-22.679 22.679-52.811 35.238-84.887 35.238-32.030 0-62.163-12.559-84.841-35.238-22.679-22.633-35.192-52.766-35.192-84.841 0-32.030 12.514-62.208 35.192-84.887 14.547-14.592 32.166-24.937 51.456-30.449l-42.782 59.768zM946.14 438.37l-123.603 174.426c-17.98 25.163-53.534 30.539-79.511 12.017-19.2-13.779-27.738-36.774-23.492-58.052l-14.366 20.104c-20.375 28.506-61.079 34.334-90.94 13.011-22.317-15.902-32.211-42.556-27.287-66.861-0.181-0.090-0.316-0.226-0.497-0.316l-6.325 8.9c-20.781 29.048-62.298 34.967-92.747 13.146-26.157-18.703-35.599-51.682-24.576-79.059l-204.966 286.69c-21.007 29.365-61.847 36.186-91.256 15.179s-36.186-61.801-15.179-91.211l204.966-286.69c-12.875-21.188-13.688-48.7 0.271-71.243l111.676-178.989c5.286-9.623 18.613-29.41 19.064-30.042 0.361-0.497 0.723-0.949 1.084-1.491 90.488-122.609 262.972-150.347 387.433-61.485 123.061 87.868 153.419 257.099 70.249 381.967z" />
<glyph unicode="&#x1f464;" glyph-name="icon_user" d="M483.104 45.715c-76.619-0.001-153.24 0.003-229.864 0.023-54.397 0.014-97.831 36.014-107.804 89.406-1.13 6.123-1.534 12.469-1.534 18.704-0.112 74.036-1.297 148.085 0.237 222.079 1.911 91.387 43.81 160.583 121.724 208.173 3.752 2.287 5.607 0.907 8.215-1.437 37.436-33.587 81.010-54.606 130.846-61.148 75.235-9.875 141.865 10.349 199.149 60.311 4.129 3.599 6.765 3.919 11.354 1.088 67.159-41.272 107.023-100.523 117.888-178.785 1.334-9.693 1.867-19.544 1.992-29.361-2.261 0.059-4.529 0.089-6.804 0.089-141.385 0-256-114.615-256-256 0-25.416 3.704-49.967 10.601-73.143zM439.695 572.777c-107.288-0.028-193.835 86.868-193.681 194.476 0.153 105.823 86.993 192.663 192.733 192.747 107.692 0.084 194.518-86.38 194.49-193.681-0.028-106.827-86.714-193.514-193.542-193.542zM673.302-63.167c-7.228 1.526-16.52 4.983-26.038 9.652-15.398 7.587-20.606 14.051-18.675 23.12 0.269 1.302 1.526 4.938 2.828 8.036 2.963 7.317 3.951 11.133 3.995 15.308 0.045 7.138-3.591 14.276-11.088 21.728-7.587 7.587-14.5 11.044-21.952 11.044-4.040 0-7.452-0.853-13.019-3.142-10.55-4.444-14.59-4.983-19.259-2.738-4.714 2.29-9.876 9.023-14.635 19.034-6.644 14.006-9.876 24.915-9.697 32.906 0.18 7.901 3.098 11.268 13.692 15.667 8.036 3.367 10.46 4.804 13.917 8.036 5.432 5.163 7.677 12.031 7.722 23.254 0 8.081-0.808 12.435-3.412 17.643-3.142 6.33-7.811 9.831-18.855 14.141-10.325 4.085-13.737 8.709-13.109 17.867 0.943 13.109 11.403 37.575 19.663 45.97 2.963 2.963 6.060 4.534 9.472 4.759 3.322 0.269 5.432-0.314 13.378-3.502 3.591-1.437 7.138-2.738 7.856-2.873 0.763-0.135 1.841-0.404 2.469-0.539 1.392-0.269 6.554-0.269 8.036 0.045 5.791 1.122 11.897 4.938 18.137 11.223 7.093 7.183 10.55 14.051 10.684 21.055 0.045 4.759-0.898 8.26-5.028 18.002-1.706 4.085-1.885 4.848-1.93 8.53-0.045 3.412 0.135 4.399 1.077 6.24 2.873 5.836 11.358 11.672 25.813 17.688 20.471 8.53 31.784 8.934 37.395 1.302 1.885-2.514 2.2-3.187 5.208-10.37 4.355-10.415 8.395-14.77 16.251-17.643 7.811-2.828 21.504-2.694 29.225 0.224 7.677 2.918 11.492 7.362 16.296 18.945 3.816 9.158 6.105 11.897 11.403 13.558 7.228 2.245 20.157-0.898 37.395-9.068 10.056-4.759 16.745-9.921 18.99-14.59 2.2-4.534 1.751-8.619-1.885-17.284-3.322-7.946-3.726-9.562-3.726-15.263 0.045-4.624 0.135-5.477 1.302-8.305 4.22-10.28 16.251-21.369 25.993-23.883 5.836-1.481 10.011-0.808 20.965 3.547 6.554 2.604 7.183 2.783 10.774 2.783 3.187 0.045 4.175-0.135 6.060-1.077 4.804-2.379 9.652-8.709 14.366-18.586 6.33-13.198 9.652-23.748 9.921-31.335 0.224-6.24-1.257-10.101-4.938-13.019-2.334-1.841-2.873-2.155-11.044-5.656-10.28-4.399-13.378-7.273-17.553-16.296-0.943-2.11-1.841-8.754-1.841-13.872-0.045-15.039 4.444-23.569 14.994-28.641 1.571-0.763 4.848-2.2 7.317-3.232 9.831-4.13 12.57-7.317 13.109-14.994 0.494-7.497-3.951-22.132-10.729-35.465-6.195-12.121-11.807-17.688-18.406-18.137-3.277-0.269-5.477 0.314-12.48 3.142-7.362 3.008-11.088 3.951-15.263 3.951-7.452 0-14.276-3.547-22.177-11.492-5.163-5.163-8.35-10.191-9.876-15.443-0.763-2.604-1.033-7.856-0.494-10.101 0.718-3.053 2.065-6.958 3.726-10.999 2.649-6.24 3.367-9.113 3.142-12.301-0.224-3.502-1.616-6.375-4.579-9.427-3.591-3.681-6.644-5.656-15.308-9.876-15.757-7.722-28.956-11.223-36.363-9.697-6.375 1.302-8.754 4.040-13.468 15.488-1.885 4.579-3.636 7.856-5.567 10.236-4.848 6.105-13.109 9.293-24.287 9.383-14.096 0.090-22.626-3.771-27.788-12.57-0.988-1.661-2.828-5.522-4.085-8.619-1.302-3.098-3.053-6.689-3.906-7.991-3.951-5.881-10.101-7.587-20.112-5.477zM745.13 30.838c14.5 2.738 28.103 8.979 39.73 18.226 4.31 3.457 11.807 10.999 14.859 15.039 9.697 12.705 15.847 27.474 18.092 43.546 0.808 5.746 0.628 20.022-0.314 25.409-3.502 19.798-12.076 36.408-25.768 49.876-14.366 14.186-31.29 22.401-51.986 25.275-4.265 0.584-18.99 0.628-21.773 0.090-0.628-0.135-2.649-0.494-4.489-0.763-10.684-1.706-22.132-6.060-32.323-12.39-3.412-2.11-9.562-6.554-11.044-7.991-0.269-0.269-1.481-1.437-2.694-2.559-7.228-6.689-14.366-16.251-18.765-24.96-6.509-13.109-9.607-25.948-9.607-40.314 0.045-20.247 6.42-39.146 18.72-55.218 2.873-3.816 10.415-11.492 14.411-14.725 12.794-10.325 28.686-17.149 45.117-19.349 7.722-1.033 19.977-0.673 27.833 0.808z" />
<glyph unicode="&#x1f4bb;" glyph-name="ico-utiliser-aide-motrice" d="M62.368 956.032c-36.609 0-66.56-29.951-66.56-66.56v-510.56c0-36.608 29.951-66.56 66.56-66.56h466.944c-2.713 4.344-5.312 8.754-7.744 13.28-2.608 5.617-4.004 11.508-4.384 17.44h-454.816c-20.121 0-35.84 15.719-35.84 35.84v510.56c0 20.121 15.719 35.84 35.84 35.84h847.456c20.121 0 35.84-15.719 35.84-35.84v-510.56c0-20.121-15.719-35.84-35.84-35.84h-258.912c7.393-10.138 14.609-20.414 21.792-30.72h198.816c15.314 8.107 34.687 8.846 50.208 1.088 30.974 5.656 54.656 32.928 54.656 65.472v510.56c0 36.609-29.951 66.56-66.56 66.56h-847.456zM574.811 383.282c-7.034-0.176-14.102-2.425-20.249-6.874l-0.187-0.15c-16.139-11.684-19.663-34.026-8.054-50.219l116.996-163.206c-7.585-9.934-8.621-23.876-1.667-35.215l58.179-94.874-0.225-0.15 13.075-21.635c118.345-160.962 358.28-16.676 266.36 165.847 0 0-16.087 23.743-17.289 23.882l-59.322 83.111c-9.984 13.986-29.387 17.008-43.307 6.93l-0.169-0.131c-10.599-7.673-14.869-20.655-11.894-32.592l-6.425 8.729c-12.515 16.983-36.090 20.894-53.178 8.523l-0.206-0.15c-12.018-8.701-17.517-23.066-15.378-36.732l-3.072 4.271c-12.292 17.145-36.072 20.875-53.161 8.504l-0.225-0.15c-16.308-11.806-20.418-33.886-10.078-50.781l-120.536 168.151c-6.893 9.614-17.631 14.757-28.584 14.91-0.468 0.011-0.936 0.012-1.405 0zM98.092 887.356h67.88c4.524 0 8.192-3.668 8.192-8.192v-67.88c0-4.524-3.668-8.192-8.192-8.192h-67.88c-4.524 0-8.192 3.668-8.192 8.192v67.88c0 4.524 3.668 8.192 8.192 8.192zM239.567 887.356h67.88c4.524 0 8.192-3.668 8.192-8.192v-67.88c0-4.524-3.668-8.192-8.192-8.192h-67.88c-4.524 0-8.192 3.668-8.192 8.192v67.88c0 4.524 3.668 8.192 8.192 8.192zM381.043 888.835h67.88c4.524 0 8.192-3.668 8.192-8.192v-67.88c0-4.524-3.668-8.192-8.192-8.192h-67.88c-4.524 0-8.192 3.668-8.192 8.192v67.88c0 4.524 3.668 8.192 8.192 8.192zM522.519 887.356h67.88c4.524 0 8.192-3.668 8.192-8.192v-67.88c0-4.524-3.668-8.192-8.192-8.192h-67.88c-4.524 0-8.192 3.668-8.192 8.192v67.88c0 4.524 3.668 8.192 8.192 8.192zM663.994 888.096h67.88c4.524 0 8.192-3.668 8.192-8.192v-67.88c0-4.524-3.668-8.192-8.192-8.192h-67.88c-4.524 0-8.192 3.668-8.192 8.192v67.88c0 4.524 3.668 8.192 8.192 8.192zM805.47 888.835h67.88c4.524 0 8.192-3.668 8.192-8.192v-67.88c0-4.524-3.668-8.192-8.192-8.192h-67.88c-4.524 0-8.192 3.668-8.192 8.192v67.88c0 4.524 3.668 8.192 8.192 8.192zM98.461 746.176h67.88c4.524 0 8.192-3.668 8.192-8.192v-67.88c0-4.524-3.668-8.192-8.192-8.192h-67.88c-4.524 0-8.192 3.668-8.192 8.192v67.88c0 4.524 3.668 8.192 8.192 8.192zM239.937 746.176h67.88c4.524 0 8.192-3.668 8.192-8.192v-67.88c0-4.524-3.668-8.192-8.192-8.192h-67.88c-4.524 0-8.192 3.668-8.192 8.192v67.88c0 4.524 3.668 8.192 8.192 8.192zM381.413 747.655h67.88c4.524 0 8.192-3.668 8.192-8.192v-67.88c0-4.524-3.668-8.192-8.192-8.192h-67.88c-4.524 0-8.192 3.668-8.192 8.192v67.88c0 4.524 3.668 8.192 8.192 8.192zM522.888 746.176h67.88c4.524 0 8.192-3.668 8.192-8.192v-67.88c0-4.524-3.668-8.192-8.192-8.192h-67.88c-4.524 0-8.192 3.668-8.192 8.192v67.88c0 4.524 3.668 8.192 8.192 8.192zM664.364 746.915h67.88c4.524 0 8.192-3.668 8.192-8.192v-67.88c0-4.524-3.668-8.192-8.192-8.192h-67.88c-4.524 0-8.192 3.668-8.192 8.192v67.88c0 4.524 3.668 8.192 8.192 8.192zM805.84 747.655h67.88c4.524 0 8.192-3.668 8.192-8.192v-67.88c0-4.524-3.668-8.192-8.192-8.192h-67.88c-4.524 0-8.192 3.668-8.192 8.192v67.88c0 4.524 3.668 8.192 8.192 8.192zM310.675 606.475h67.88c4.524 0 8.192-3.668 8.192-8.192v-67.88c0-4.524-3.668-8.192-8.192-8.192h-67.88c-4.524 0-8.192 3.668-8.192 8.192v67.88c0 4.524 3.668 8.192 8.192 8.192zM452.15 604.997h67.88c4.524 0 8.192-3.668 8.192-8.192v-67.88c0-4.524-3.668-8.192-8.192-8.192h-67.88c-4.524 0-8.192 3.668-8.192 8.192v67.88c0 4.524 3.668 8.192 8.192 8.192zM593.626 605.736h67.88c4.524 0 8.192-3.668 8.192-8.192v-67.88c0-4.524-3.668-8.192-8.192-8.192h-67.88c-4.524 0-8.192 3.668-8.192 8.192v67.88c0 4.524 3.668 8.192 8.192 8.192zM98.092 463.816h67.88c4.524 0 8.192-3.668 8.192-8.192v-67.88c0-4.524-3.668-8.192-8.192-8.192h-67.88c-4.524 0-8.192 3.668-8.192 8.192v67.88c0 4.524 3.668 8.192 8.192 8.192zM806.209 463.816h67.88c4.524 0 8.192-3.668 8.192-8.192v-67.88c0-4.524-3.668-8.192-8.192-8.192h-67.88c-4.524 0-8.192 3.668-8.192 8.192v67.88c0 4.524 3.668 8.192 8.192 8.192zM240.128 464.544c-5.012 0-9.056-4.012-9.056-9.024v-66.176c0-5.012 4.044-9.056 9.056-9.056h287.936c10.044 14.561 26.022 25.020 44.032 25.408 12.975 0.539 26.062-2.952 36.736-10.304 4.503-4.939 8.899-9.987 13.184-15.104h109.504c5.012 0 9.056 4.044 9.056 9.056v66.176c0 5.012-4.044 9.024-9.056 9.024h-491.392zM98.947 606.475h122.716c5.012 0 9.047-4.035 9.047-9.047v-66.17c0-5.012-4.035-9.047-9.047-9.047h-122.716c-5.012 0-9.047 4.035-9.047 9.047v66.17c0 5.012 4.035 9.047 9.047 9.047zM749.225 604.997h122.716c5.012 0 9.047-4.035 9.047-9.047v-66.17c0-5.012-4.035-9.047-9.047-9.047h-122.716c-5.012 0-9.047 4.035-9.047 9.047v66.17c0 5.012 4.035 9.047 9.047 9.047z" />
<glyph unicode="&#x1f4d6;" glyph-name="help_guide" d="M0 475.106c0-261.301 0.361-366.111 1.325-370.688 4.578-21.926 22.287-40.238 44.574-46.14 9.758-2.651 922.443-2.651 932.201 0 19.878 5.301 35.178 19.155 42.526 38.671l2.771 7.108 0.361 367.796 0.241 367.676-218.895-0.361c-207.692-0.241-219.376-0.361-226.244-2.529-35.419-10.722-61.681-40.599-65.898-74.812-0.602-4.336-1.205-2.892-3.734 8.553-4.819 21.324-19.275 41.924-38.189 54.212-10.842 6.987-17.588 9.879-30.118 12.649-9.879 2.168-18.793 2.289-225.521 2.289h-215.401v-364.423zM286.72 627.26c23.492-2.771 46.020-10.842 63.849-22.769 30.961-20.721 48.308-51.802 48.429-86.619 0-22.769-5.782-39.635-20.6-59.031-4.216-5.662-8.192-10.481-8.674-10.842s-5.662-5.18-11.565-10.842c-5.782-5.662-15.541-14.576-21.444-19.758-6.024-5.301-16.866-15.661-24.214-22.889-15.902-16.022-19.275-22.046-24.576-44.574-2.289-9.638-4.939-17.588-6.746-20.6-12.891-20.239-46.501-18.191-57.706 3.614-3.494 6.867-3.614 7.589-3.494 23.372 0 18.793 2.529 29.876 9.638 43.972 8.313 16.144 18.071 26.986 51.080 56.621 8.915 7.951 18.071 16.144 20.36 18.191 5.782 5.18 13.854 16.384 17.709 24.335 5.541 11.686 4.699 28.311-1.927 41.442-3.373 6.626-12.288 15.781-19.758 20.239-19.034 11.445-52.887 11.325-70.836-0.241-12.408-7.951-23.131-24.816-32.166-50.598-6.626-19.034-14.095-27.828-26.624-31.442-17.107-4.939-35.9 3.855-44.092 20.721-7.348 14.939 1.687 50.115 18.553 72.765 21.565 28.913 57.224 49.273 95.413 54.453 14.095 1.927 35.78 2.168 49.393 0.482zM913.528 627.019c6.626-2.409 12.167-7.108 16.022-13.613 3.012-5.060 3.494-6.987 3.494-14.818 0-7.711-0.602-9.999-3.253-14.576-1.807-3.012-5.18-6.987-7.711-8.915-9.035-6.867-3.494-6.626-154.082-6.626-156.732 0-147.215-0.602-156.612 9.155-5.421 5.541-9.035 13.734-9.035 20.36 0 13.372 9.999 26.624 22.167 29.515 2.048 0.602 66.861 0.964 144.082 1.085 114.327 0 141.192-0.241 144.926-1.566zM913.528 506.548c6.626-2.409 12.408-7.348 16.144-13.734 2.892-4.819 3.373-6.987 3.373-14.698s-0.602-9.999-3.373-14.698c-1.807-3.132-5.060-7.108-7.228-8.674-9.276-7.108-1.927-6.746-154.925-6.746-112.76 0.12-141.312 0.361-144.926 1.687-20.6 7.348-26.624 33.612-11.325 49.273 9.396 9.758-1.446 9.035 156.732 9.155 114.808 0 141.794-0.241 145.528-1.566zM912.445 386.078c7.469-2.289 12.891-6.626 17.107-13.613 3.012-5.060 3.494-6.987 3.494-14.818 0-7.711-0.602-9.999-3.373-14.698-1.807-3.132-5.060-7.108-7.228-8.674-9.276-7.108-1.927-6.746-154.322-6.746-157.455 0-147.215-0.602-156.732 9.035-5.421 5.421-9.035 13.854-9.035 21.202 0 12.408 9.518 25.179 21.444 28.793 1.807 0.602 66.139 1.085 143.119 1.085 117.339 0.12 140.709-0.12 145.528-1.566zM272.866 286.689c8.674-3.855 13.613-8.072 18.673-16.022 10.24-15.661 8.192-38.068-4.578-50.959-20.239-20.721-56.501-15.42-69.029 9.999-2.529 4.819-2.892 7.469-2.892 18.312 0 11.565 0.241 13.132 3.373 18.673 3.975 7.228 9.035 12.891 15.059 16.866 10.12 6.626 28.191 8.072 39.394 3.132zM793.299 265.246c7.951-2.651 15.3-10.24 18.071-18.432 3.855-11.686-0.241-26.021-9.518-33.129-8.794-6.746-7.711-6.626-93.365-6.626-89.389 0-87.944-0.12-96.618 8.553-8.794 8.794-11.325 18.673-7.711 30.72 2.771 9.518 10.12 16.625 21.082 20.119 0.964 0.361 37.948 0.722 82.040 0.722 71.56 0.12 80.835-0.12 86.016-1.927z" />
<glyph unicode="&#x1f4f0;" glyph-name="presentation" d="M361.663-45.921c0 20.631 1.55 26.484 8.989 33.921 8.794 8.794 10.184 8.989 63.988 8.989h47.293v150.337h60.135v-150.337h47.293c53.805 0 55.196-0.195 63.988-8.989 7.438-7.438 8.989-13.291 8.989-33.921v-17.225h-300.674v17.225zM50.268 179.458c-7.1 2.508-14.861 10.457-17.355 17.774-1.835 5.383-1.992 30.999-1.992 323.745 0 306.736-0.078 317.9-2.192 317.9-9.747 0-22.439 9.727-25.884 19.84-2.846 8.351-2.846 42.173 0 50.524 2.593 7.612 10.235 15.253 17.848 17.848 5.404 1.842 42.594 1.992 491.306 1.992s485.904-0.15 491.306-1.992c7.612-2.593 15.253-10.235 17.848-17.848 2.846-8.351 2.846-42.173 0-50.524-3.445-10.111-16.137-19.84-25.884-19.84-2.114 0-2.192-11.163-2.192-317.9 0-356.718 0.859-324.748-8.989-334.595-9.918-9.918 38.85-9-472.605-8.893-409.718 0.086-456.447 0.285-461.218 1.97zM932.944 538.202v300.674h-841.888v-601.348h841.888v300.674zM279.278 419.683c-15.991 2.513-28.128 6.385-43.297 13.81-43.022 21.058-71.863 58.317-81.983 105.912-3.008 14.147-3.008 43.582 0 57.729 7.95 37.39 28.182 69.439 57.809 91.572 11.577 8.648 35.022 20.406 47.626 23.886 37.468 10.343 73.51 7.146 107.641-9.55 43.011-21.038 71.863-58.31 81.983-105.908 1.563-7.352 2.174-15.459 2.174-28.865 0-20.020-1.702-31.149-7.354-48.108-9.199-27.597-28.787-54.517-52.63-72.329-11.577-8.648-35.022-20.406-47.626-23.886-20.992-5.795-44.64-7.362-64.344-4.265zM359.859 588.972c29.767 10.62 54.33 19.49 54.586 19.712s-0.756 3.263-2.249 6.755c-17.238 40.349-57.031 69.079-100.574 72.612l-10.094 0.819v-60.428c0-57.064 0.117-60.383 2.105-59.603 1.158 0.455 26.459 9.515 56.226 20.133zM512 478.067v30.067h300.674v-60.135h-300.674v30.067zM512 568.27v30.067h360.809v-60.135h-360.809v30.067zM512 658.472v30.067h300.674v-60.135h-300.674v30.067z" />
<glyph unicode="&#x1f4f7;" glyph-name="ico-guide" d="M512 958.189c-281.769 0-510.189-228.419-510.189-510.189s228.419-510.189 510.189-510.189c281.769 0 510.189 228.419 510.189 510.189s-228.419 510.189-510.189 510.189zM317.947 650.898h44.951c13.853 0 24.996-11.143 24.996-24.996v-20.649h357.675c17.316 0 31.275-13.96 31.275-31.275v-328.875h-499.653c-17.316 0-30.008 13.295-30.008 30.611v329.54h45.766v20.649c0 13.853 11.143 24.996 24.996 24.996zM310.883 558.642c-10.39 0-18.777-8.388-18.777-18.777v-10.687c0-10.39 8.388-18.747 18.777-18.747h58.083c10.39 0 18.747 8.358 18.747 18.747v10.687c0 10.39-8.358 18.777-18.747 18.777h-58.083zM536.845 542.672c-65.206 0-118.098-52.862-118.098-118.068s52.892-118.068 118.098-118.068c65.206 0 118.068 52.862 118.068 118.068s-52.862 118.068-118.068 118.068zM535.185 494.974c40.387 0 73.117-32.73 73.117-73.117s-32.73-73.147-73.117-73.147c-40.387 0-73.117 32.76-73.117 73.147s32.73 73.117 73.117 73.117zM536.513 486.189c-0.508 0.002-1.032-0.018-1.54-0.030-1.98-0.277-4.545 0.579-5.796-1.509 2.466-2.627 6.646-2.018 9.721-3.713 26.235-9.111 49.106-29.553 58.083-56.211 2.055-5.199 2.319 1.692 1.902 4.075-2.128 23.378-18.107 44.793-40.151 52.981-7.036 2.825-14.605 4.38-22.219 4.408z" />
<glyph unicode="&#x1f4fa;" glyph-name="agencement" horiz-adv-x="1035" d="M426.667 533.333h597.333v-597.333h-597.333v597.333zM0 533.333h341.333v-597.333h-341.333v597.333zM0 960h1024v-341.333h-1024v341.333z" />
<glyph unicode="&#x1f50e;" glyph-name="ico-ameliorer-lisibilite" d="M399.288 960.287c-219.981 0-398.302-178.021-398.302-397.633s178.321-397.633 398.302-397.633c86.482 0 166.486 27.511 231.787 74.25l293.906-293.412c10.009-9.992 26.12-9.992 36.129 0l56.37 56.275c10.009 9.992 10.009 26.077 0 36.069l-293.946 293.492c46.607 65.103 74.055 144.836 74.055 230.96 0 219.612-178.321 397.633-398.302 397.633zM399.288 835.023c150.679 0 272.827-121.943 272.827-272.369s-122.148-272.369-272.827-272.369c-150.679 0-272.827 121.943-272.827 272.369s122.148 272.369 272.827 272.369zM217.161 670.321h364.764c5.655 0 10.24-4.585 10.24-10.24v-21.958c0-5.655-4.585-10.24-10.24-10.24h-364.764c-5.655 0-10.24 4.585-10.24 10.24v21.958c0 5.655 4.585 10.24 10.24 10.24zM215.866 586.847h364.764c5.655 0 10.24-4.585 10.24-10.24v-21.958c0-5.655-4.585-10.24-10.24-10.24h-364.764c-5.655 0-10.24 4.585-10.24 10.24v21.958c0 5.655 4.585 10.24 10.24 10.24zM214.916 503.372h173.179c7.077 0 12.775-5.688 12.775-12.754v-16.931c0-7.065-5.698-12.754-12.775-12.754h-173.179c-7.077 0-12.775 5.688-12.775 12.754v16.931c0 7.065 5.698 12.754 12.775 12.754z" />
<glyph unicode="&#x1f527;" glyph-name="settings" d="M385.536 862.72c-16.486-3.482-37.683-11.366-59.392-22.016-35.123-17.306-47.002-32.051-42.598-52.736 0.614-2.97 3.482-11.264 6.451-18.33 6.758-16.691 9.011-25.395 9.114-34.918 0.102-16.282-8.192-32.563-25.293-49.562-17.306-17.306-33.075-25.19-50.074-25.19-9.216 0-16.998 1.946-29.696 7.168-24.064 10.138-33.28 11.366-43.93 6.246-10.752-5.222-22.528-20.582-33.382-43.418-15.155-31.949-22.528-56.832-22.118-75.059 0.41-18.022 7.066-25.702 31.232-35.738 18.33-7.68 23.859-10.957 31.744-18.33 12.39-11.776 17.51-27.443 17.613-53.043 0-18.432-1.843-28.365-7.782-40.243-7.168-14.438-17.818-22.426-43.008-32.256-23.552-9.318-31.334-19.866-29.901-40.755 2.15-29.901 26.010-85.709 44.851-104.858 6.758-6.758 13.824-10.342 21.606-10.854 7.578-0.614 12.39 0.717 30.515 7.987 8.192 3.277 16.282 6.246 17.92 6.554 1.741 0.307 4.198 0.922 5.632 1.229 3.174 0.614 14.95 0.614 18.33-0.102 13.21-2.56 27.136-11.264 41.37-25.6 16.179-16.384 24.064-32.051 24.371-48.026 0.102-10.854-2.048-18.842-11.469-41.062-3.891-9.318-4.301-11.059-4.403-19.456-0.102-7.782 0.307-10.035 2.458-14.234 6.554-13.312 25.907-26.624 58.88-40.346 46.694-19.456 72.499-20.378 85.299-2.97 4.301 5.734 5.018 7.27 11.878 23.654 9.933 23.757 19.149 33.69 37.069 40.243 17.818 6.451 49.050 6.144 66.662-0.512 17.51-6.656 26.214-16.794 37.171-43.213 8.704-20.89 13.926-27.136 26.010-30.925 16.486-5.12 45.978 2.048 85.299 20.685 22.938 10.854 38.195 22.63 43.315 33.28 5.018 10.342 3.994 19.661-4.301 39.424-7.578 18.125-8.499 21.811-8.499 34.816 0.102 10.547 0.307 12.493 2.97 18.944 9.626 23.45 37.069 48.742 59.29 54.477 13.312 3.379 22.835 1.843 47.821-8.090 14.95-5.939 16.384-6.349 24.576-6.349 7.27-0.102 9.523 0.307 13.824 2.458 10.957 5.427 22.016 19.866 32.768 42.394 14.438 30.106 22.016 54.17 22.63 71.475 0.512 14.234-2.867 23.040-11.264 29.696-5.325 4.198-6.554 4.915-25.19 12.902-23.45 10.035-30.515 16.589-40.038 37.171-2.15 4.813-4.198 19.968-4.198 31.642-0.102 34.304 10.138 53.76 34.202 65.331 3.584 1.741 11.059 5.018 16.691 7.373 22.426 9.421 28.672 16.691 29.901 34.202 1.126 17.101-9.011 50.483-24.474 80.896-14.131 27.648-26.931 40.346-41.984 41.37-7.475 0.614-12.493-0.717-28.467-7.168-16.794-6.861-25.293-9.011-34.816-9.011-16.998 0-32.563 8.090-50.586 26.214-11.776 11.776-19.046 23.245-22.528 35.226-1.741 5.939-2.355 17.92-1.126 23.040 1.638 6.963 4.71 15.872 8.499 25.088 6.042 14.234 7.68 20.787 7.168 28.058-0.512 7.987-3.686 14.541-10.445 21.504-8.192 8.397-15.155 12.902-34.918 22.528-35.942 17.613-66.048 25.6-82.944 22.118-14.541-2.97-19.968-9.216-30.72-35.328-4.301-10.445-8.294-17.92-12.698-23.347-11.059-13.926-29.901-21.197-55.398-21.402-32.154-0.205-51.61 8.602-63.386 28.672-2.253 3.789-6.451 12.595-9.318 19.661-2.97 7.066-6.963 15.258-8.909 18.227-9.011 13.414-23.040 17.306-45.875 12.493zM549.376 648.294c33.075-6.246 64.102-20.48 90.624-41.574 9.83-7.885 26.931-25.088 33.894-34.304 22.118-28.979 36.147-62.669 41.267-99.328 1.843-13.107 1.434-45.67-0.717-57.958-7.987-45.158-27.546-83.046-58.778-113.766-32.768-32.358-71.373-51.098-118.579-57.651-9.728-1.331-43.315-1.434-49.664-0.205-1.434 0.307-6.042 1.126-10.24 1.741-24.371 3.891-50.483 13.824-73.728 28.262-7.782 4.813-21.811 14.95-25.19 18.227-0.614 0.614-3.379 3.277-6.144 5.837-16.486 15.258-32.768 37.069-42.803 56.934-14.848 29.901-21.914 59.187-21.914 91.955 0.102 46.182 14.643 89.293 42.701 125.952 6.554 8.704 23.757 26.214 32.87 33.587 29.184 23.552 65.434 39.117 102.912 44.134 17.613 2.355 45.568 1.536 63.488-1.843z" />
<glyph unicode="&#x1f680;" glyph-name="ico-decouvrir" d="M1017.672 953.673c-257.054 34.044-372.613-80.382-372.613-80.382-112.064-112.063-194.857-194.959-265.26-265.505l-116.737 26.726c-9.972 2.284-18.88 7.234-26.114 0l-230.455-230.455c-7.234-7.234-9.972-23.83 0-26.114l230.863-52.881c25.925-25.901 75.894-75.812 75.894-75.812s49.91-49.968 75.812-75.893l52.881-230.863c2.283-9.972 18.88-7.234 26.114 0l230.455 230.455c7.234 7.234 2.283 16.142 0 26.114l-26.726 116.737c70.547 70.403 153.442 153.196 265.505 265.26 0 0 114.426 115.559 80.382 372.613zM890.163 826.163c31.025-31.025 31.025-81.347 0-112.371s-81.306-30.984-112.331 0.041c-31.025 31.025-31.025 81.265 0 112.29s81.306 31.066 112.331 0.041zM25.624-44.125c0 0 398.904 71.707 305.574 235.971 15.869-86.759-196.754-124.943-196.754-124.943s33.977 216.83 121.021 200.676c-166.059 95.139-229.842-311.704-229.842-311.704z" />
</font>
</defs>
</svg>
